22.03.2012 Михаил Кликин - Наш упырь

Тема в разделе "Обсуждение эфиров", создана пользователем Mitnik, 23 мар 2012.

  1. Mitnik

    Mitnik

    Регистрация:
    3 ноя 2007
    Сообщения:
    170
  2. beckham48

    beckham48

    Регистрация:
    3 фев 2011
    Сообщения:
    22
    Жаль инет трансляция прервалась (в соц сети в контакте - у всех). 10 минут тишины. Запись будет на вес золота.
     
  3. djhell

    djhell Гуру mds.ru

    Регистрация:
    19 янв 2004
    Сообщения:
    2.982
    По этому я пишу только с радио!
     
  4. povan

    povan

    Регистрация:
    27 мар 2010
    Сообщения:
    174
    Эфир выше всех похвал. Рассказ интересный, чем-то напомнил "Черный кобель Жук" (вроде бы, тоже Михаил написал) - у них схожие атмосфера и декорации. Оформление вообще слушал как класическую музыку. Если поначалу боялся, что усну, как на прошлой неделе, то потом желание спать вообще пропало. Рассказ абсолютно нестрашный (а я в темноте и одиночестве). Происходящее, конечно, слегка веяло холодом, но не более.
    Спасибо всей команде за эфир. Жду плейлиста, хотя некоторые композиции угадывались сразу. Ретроспектива - это хорошо))) Жду еще
     
  5. Koss

    Koss

    Регистрация:
    19 апр 2010
    Сообщения:
    92
    Спасибо за эфир!
    Рассказ - отличный!
    Ужастик - во :good:
    Упыря - в каждый дом!!!! И будет тогда коммунизм походу... :yahoo:

    Эддисон, благодарю за подборку треков!
    Как сказал Влад, мы помним середину девяностых.
    Вот соответственное количество годков с удовольствием скинул во время эфира. :)
    Пришла пора переслушать передачи тех лет.
    Практически слёзы временами наворачивались, не сочтите за меланхолию. :unsure:
     
  6. djhell

    djhell Гуру mds.ru

    Регистрация:
    19 янв 2004
    Сообщения:
    2.982
  7. Проза

    Проза

    Регистрация:
    14 сен 2007
    Сообщения:
    502
    Эфир действительно получился эталонным. Музыка, текст... Атмосфера рассказа ощущается кожей, почти каждый музыкальный трек заставлял ностальгически вздыхать ^_^
    Огромное спасибо!

    Addison, спасибо за такую замечательную ретроспективу :good:
    lightday, спасибо за хороший вечер и возитив :friends:
     
  8. ariandr

    ariandr

    Регистрация:
    7 июн 2004
    Сообщения:
    440
    Вся надежда была на тебя!
    Спасибо тебе за запись, т.к. сам вчера даже послушать не смог...
    Качаю в дорогу, в предвкушении сказки :)
     
    Последнее редактирование модератором: 3 фев 2014
  9. shapk1965

    shapk1965

    Регистрация:
    24 фев 2012
    Сообщения:
    7
    Дежурный вариант: http://ifolder.ru/29466873 МР3 128 Кбит. 110 Мб. Захват онлайн трансляции c ПионэрФМ без перекодировки
     
  10. payne

    payne

    Регистрация:
    2 дек 2008
    Сообщения:
    25
  11. ariandr

    ariandr

    Регистрация:
    7 июн 2004
    Сообщения:
    440
    еду не в в метро, а несусь сквозь вселенную...с lazonby)

    это лучшее,что случилось со мной за этот год!

    Андрей, Влад и вся команда - фантастическое вам спасибо!


    flac обязательно заберу!
     
    Последнее редактирование модератором: 3 фев 2014
  12. brewer

    brewer

    Регистрация:
    7 ноя 2007
    Сообщения:
    2
    спасибо большое. Вчера недослушал. Траффик скачет
     
  13. povan

    povan

    Регистрация:
    27 мар 2010
    Сообщения:
    174
    Михаил Кликин (http://vk.com/id58646831)
    При монтаже, похоже, был пропущен кусок рассказа - про то, как Вовка оказался в избе с бандитами: "...Собрание завершилось быстро, но совсем не так, как думали старики...
    Из слепого дома Анны Сергеевны вышли те самые люди, что били Вовкину бабушку. Один - пошире, с ружьем висящим поперек груди - спустился к построившимся старикам. Другой - повыше, с коротким автоматом под мышкой - остался на крыльце. У них обоих были колючие глаза, тяжелые подбородки и косые тонкие рты. Но Вовка не смотрел на их лица. Он смотрел на оружие.
    Сыпал дождь и было довольно зябко. Старики стояли понурые, глядели в землю, не шевелились. Даже Дима-дурачок, опухший от побоев, окривевший, стоял смирно, навытяжку, лишь щеки надул...
    Человек с ружьем прошелся вдоль строя, выплюнул изжеванный чинарик, обернулся к товарищу, кивнул:
    - Все.
    - Грызуна уцепи, - сказал тот, что стоял на крыльце. И человек с ружьем взял Вовку за плечо, выдернул из строя, перехватил за шиворот.
    Бабушка Варвара всплеснула руками. Дед Семён подался вперед.
    - Стой! - вздернулся автоматный ствол. - Тихо! Ничего с ним не будет. Перекантуется с нами, только ума наберется...
    Вовку затолкали на крыльцо, пихнули в дверной проем, поволокли по темному коридору.
    - А теперь по хатам! - надрывался на улице сиплый голос. - Всё, я сказал! Короче!.."

    сегодня в 8:24
     
  14. raper

    raper

    Регистрация:
    2 апр 2006
    Сообщения:
    1.336
    А я-то думал, что прослушал этот момент:) Но на смысле не сказалось.
     
  15. Psy-X

    Psy-X

    Регистрация:
    23 мар 2012
    Сообщения:
    6
    ещё одна запись mp3 MDS_#_05_(22-23.03.2012) с потока ogg-160kbs

    убраны лишние звуки (рекламныe заставки, звуки барабанов в начале каждого часа)
    добавлен cue файл

    Код:
    PERFORMER "MDS: VA"
    TITLE "MDS_#_05_(23.03.2012)_[Михаил Кликин - Наш Упырь]"
    FILE "MDS_#_05_(23.03.2012).mp3" MP3
      TRACK 01 AUDIO
        TITLE "Intro"
        PERFORMER "Вступление"
        INDEX 01 00:00:00
      TRACK 02 AUDIO
        TITLE "Приведствие Ведущих"
        PERFORMER "Ведущие"
        INDEX 01 05:41:20
      TRACK 03 AUDIO
        TITLE "1"
        PERFORMER "Music"
        INDEX 01 09:16:09
      TRACK 04 AUDIO
        TITLE "М.Кликин - Наш Упырь"
        PERFORMER "Рассказ"
        INDEX 01 20:47:50
      TRACK 05 AUDIO
        TITLE "2"
        PERFORMER "Music"
        INDEX 01 99:00:00
      TRACK 06 AUDIO
        TITLE "Разговор и прощание ведущих"
        INDEX 01 112:01:40
        PERFORMER "Ведущие"
      TRACK 07 AUDIO
        TITLE "Outro"
        PERFORMER "Music"
        INDEX 01 116:40:47
      TRACK 08 AUDIO
        TITLE "PionerFM"
        PERFORMER "Заставка"
        INDEX 01 119:17:09
     
  16. djhell

    djhell Гуру mds.ru

    Регистрация:
    19 янв 2004
    Сообщения:
    2.982
    Всегда рад. Главное я вовремя заметил что пишется криво и быстро всё исправил. Если нужно могу исходник скинуть.

    я был в курсе, Сергей сказал что кусочек пропал. Я не очень заметил, но было немного странно что Вовка только играл с бабушкой и тут уже с бандитами. :) Но я подумал что это была другая бабушка. :))
     
    Последнее редактирование модератором: 3 фев 2014
  17. djhell

    djhell Гуру mds.ru

    Регистрация:
    19 янв 2004
    Сообщения:
    2.982
    Скажу ещё раз. Рассказ был весьма хорошо, мне понравилось, для меня было не страшно. Влад как всегда гениален и многогранен, автору спасибо за текст. И отдельная благодарность Андрею за великолепный музыкальный фон. :D
     
  18. Проза

    Проза

    Регистрация:
    14 сен 2007
    Сообщения:
    502
    +1 конечно :clapping:
     
    Последнее редактирование модератором: 3 фев 2014
  19. grey2000

    grey2000 Гуру mds.ru

    Регистрация:
    21 апр 2006
    Сообщения:
    2.057
    Выпуск получился на "отлично", респект всем, кто участвовал в его создании, в том числе Roygbiv-у за, как я понимаю, бОльшую часть предложенных треков ;)

    Запись у меня прошла нормально, и wav и резервная mp3, но эфирные шорохи чуть сильнее, чем у HeLL-а и Payne, могу выложить, если будет нужно.
     
  20. ariandr

    ariandr

    Регистрация:
    7 июн 2004
    Сообщения:
    440

Поделиться этой страницей